منتديات سات 2011

www.saat2011.yoo7.com
 
الرئيسيةالتسجيلدخول

شاطر | 
 

 Source Code 2011 TS XviD Feel-Free torrent

استعرض الموضوع السابق استعرض الموضوع التالي اذهب الى الأسفل 
كاتب الموضوعرسالة
محمد
عضو مشارك
عضو مشارك
avatar

نقاط 352
العراق
ذكر
عدد الرسائل : 77
المستوي 3
تاريخ التسجيل : 22/02/2011
العمر : 25

مُساهمةموضوع: Source Code 2011 TS XviD Feel-Free torrent   الجمعة أبريل 15, 2011 2:42 am


[ندعوك للتسجيل في المنتدى أو التعريف بنفسك لمعاينة هذه الصورة][ندعوك للتسجيل في المنتدى أو التعريف بنفسك لمعاينة هذه الصورة]




Torrent Info URL

[ندعوك للتسجيل في المنتدى أو التعريف بنفسك لمعاينة هذا الرابط]


Torrent Description
[ندعوك للتسجيل في المنتدى أو التعريف بنفسك لمعاينة هذه الصورة]



Genre:Action | Mystery | Romance
Language:English
IMDb:http://www.imdb.com/title/tt0945513/
Source:ELEKT4IKA/IMAGINE.Thanks!


Format : AVI
Format/Info : Audio Video Interleave
File size : 694 MiB
Duration : 1h 26mn
Overall bit rate : 1 126 Kbps


Video
ID : 0
Format : MPEG-4 Visual
Format profile : Advanced Simple@L5
Format settings, BVOP : Yes
Format settings, QPel : No
Format settings, GMC : No warppoints
Format settings, Matrix : Default (H.263)
Muxing mode : Packed bitstream
Codec ID : XVID
Codec ID/Hint : XviD
Duration : 1h 26mn
Bit rate : 988 Kbps
Width : 720 pixels
Height : 400 pixels
Display aspect ratio : 16:9
Frame rate : 25.000 fps
Color space : YUV
Chroma subsampling : 4:2:0
Bit depth : 8 bits
Scan type : Progressive
Bits/(Pixel*Frame) : 0.137
Stream size : 609 MiB (88%)
Writing library : XviD 1.2.1 (UTC 2008-12-04)

Audio
ID : 1
Format : MPEG Audio
Format version : Version 1
Format profile : Layer 3
Codec ID : 55
Codec ID/Hint : MP3
Duration : 1h 26mn
Bit rate mode : Constant
Bit rate : 128 Kbps
Channel(s) : 2 channels
Sampling rate : 44.1 KHz
Stream size : 78.9 MiB (11%)
Alignment : Split accross interleaves
Interleave, duration : 40 ms (1.00 video frame)
Interleave, preload duration : 500 ms



Plot:
An action thriller centered on a soldier who wakes up in the body of an
unknown man and discovers he's part of a mission to find the bomber of a
Chicago commuter train.

TRAILER:




[ندعوك للتسجيل في المنتدى أو التعريف بنفسك لمعاينة هذه الصورة]
[ندعوك للتسجيل في المنتدى أو التعريف بنفسك لمعاينة هذه الصورة]
[ندعوك للتسجيل في المنتدى أو التعريف بنفسك لمعاينة هذه الصورة]
[ندعوك للتسجيل في المنتدى أو التعريف بنفسك لمعاينة هذه الصورة]
[ندعوك للتسجيل في المنتدى أو التعريف بنفسك لمعاينة هذه الصورة]
الرجوع الى أعلى الصفحة اذهب الى الأسفل
walccw
مؤسس الموقع
مؤسس الموقع
avatar

نقاط 2156
العراق
ذكر
عدد الرسائل : 419
المستوي 3
تاريخ التسجيل : 17/02/2011
العمر : 26
~~~~~~~sms~~~~~~~ عندما تغرد البعارين اسمع نباح العصافير وصهيل القطط وأرى الناقة تمتص من رحيق الازهار و الخرفان تحلق في السماء اطير في البحار واسبح في الصحراء واتعشى الفطور واتغدى العشاء ( واحد من كثر شوقه لكم مش دارى ايه بيقوول...... )

 My MMS
توقيت المنتدى :



مُساهمةموضوع: رد: Source Code 2011 TS XviD Feel-Free torrent   الإثنين مايو 02, 2011 9:07 pm

مشكووووور




ندعوك [ندعوك للتسجيل في المنتدى أو التعريف بنفسك لمعاينة هذا الرابط] أو [ندعوك للتسجيل في المنتدى أو التعريف بنفسك لمعاينة هذا الرابط]
الرجوع الى أعلى الصفحة اذهب الى الأسفل
http://saat2011.yoo7.com
 
Source Code 2011 TS XviD Feel-Free torrent
استعرض الموضوع السابق استعرض الموضوع التالي الرجوع الى أعلى الصفحة 
صفحة 1 من اصل 1
 مواضيع مماثلة
-
» لن نرضى بغير كأس اسيا2011
» حصريا عمرو حاحا مولد عين شمس 2011
» سيارة انفينيتي (Infiniti QX (2011
» نظارات شمسيه رووووعه 2011
» صنادل سواريه 2011[

صلاحيات هذا المنتدى:لاتستطيع الرد على المواضيع في هذا المنتدى
منتديات سات 2011 :: مقاطع فيديو / افلام كاملة للتحميل-
انتقل الى: