منتديات سات 2011

www.saat2011.yoo7.com
 
الرئيسيةالتسجيلدخول

شاطر | 
 

 Browse Movies torrents Thor 2011 TS READNFO XViD - IMAGiNE NO RAR

استعرض الموضوع السابق استعرض الموضوع التالي اذهب الى الأسفل 
كاتب الموضوعرسالة
محمد
عضو مشارك
عضو مشارك
avatar

نقاط 352
العراق
ذكر
عدد الرسائل : 77
المستوي 3
تاريخ التسجيل : 22/02/2011
العمر : 25

مُساهمةموضوع: Browse Movies torrents Thor 2011 TS READNFO XViD - IMAGiNE NO RAR   الإثنين مايو 02, 2011 9:46 pm

Torrent Description
thorz.jpg
Code:
Thor 2011 TS READNFO XViD - IMAGiNE Ripper ...........: IMAGiNE IMDB Rating.......:7.8/10 Video Codec.......: XVID Release Date......:01/05/11 Audio Codec.......:MP3 Theatre Date......:27/05/11 limited Audio Bitrate.....:128 Runtime.......:1h 44mn Subtitles.........:NIL Language..........:ENGLISH Resolution...... 720 x 304 IMDb URL.......... [ندعوك للتسجيل في المنتدى أو التعريف بنفسك لمعاينة هذا الرابط] DETAILS: Video ID : 0 Format : MPEG-4 Visual Format profile : Advanced Simple@L5 Format settings, BVOP : 2 Format settings, QPel : No Format settings, GMC : No warppoints Format settings, Matrix : Default (MPEG) Muxing mode : Packed bitstream Codec ID : XVID Codec ID/Hint : XviD Duration : 1h 44mn Bit rate : 1 636 Kbps Width : 720 pixels Height : 304 pixels Display aspect ratio : 2.35:1 Frame rate : 25.000 fps Color space : YUV Chroma subsampling : 4:2:0 Bit depth : 8 bits Scan type : Progressive Compression mode : Lossy Bits/(Pixel*Frame) : 0.299 Stream size : 1.19 GiB (92%) Writing library : XviD 61 Audio ID : 1 Format : MPEG Audio Format version : Version 1 Format profile : Layer 3 Mode : Joint stereo Mode extension : MS Stereo Codec ID : 55 Codec ID/Hint : MP3 Duration : 1h 44mn Bit rate mode : Constant Bit rate : 128 Kbps Channel(s) : 2 channels Sampling rate : 44.1 KHz Compression mode : Lossy Delay relative to video : 4ms Stream size : 95.2 MiB (7%) Alignment : Split accross interleaves Interleave, duration : 40 ms (1.00 video frame) Interleave, preload duration : 500 ms SOURCES: VIDEO:Thor.iNT.CAM.XviD.Hungarian-G1-CiNEDUB AUDIO:Thanks m8ty NOTES: IMAGiNE bringing you another release..........Thor 2011 Here we go with our V1 of Thor....for this we used cinedubs video,which was half decent but had faults like normaly with theirs ....yes the dreaded flicker Now the flicker isn't has bad as some of theirs and only happens now and again and now from start to end... Also because they've used an auto white filter ....on some scenes you get a blue hue over the screen. Right fixed video by resizing,fixing colours best we could ...and also lowered the chroma,also messed with the brightness and contrast levels and also made it duller to tone down the glares it had. Audio we synced but never had full credits so we had to cut them...hence the runtime being shorter....but we did leave the after credit scene For now this will do most ....specially those that moan it doesn't work on their ps3's as this one works in the toastie or microwave and most users have one of them Oh also convert the line audio to DTS 69.1 for those that get the 69.1 surround sound in the future ....so this is future proofaswell ....so ladies and gentleman,boys and girls ....enjoy this fecking shite film
Screens:
48472444.jpg
22837506.jpg
41623970.jpg
13149374.jpg
31761301.jpg

Download Thor 2011 TS READNFO XViD - IMAGiNE NO RAR torrentDownload from UseNeXT
الرجوع الى أعلى الصفحة اذهب الى الأسفل
 
Browse Movies torrents Thor 2011 TS READNFO XViD - IMAGiNE NO RAR
استعرض الموضوع السابق استعرض الموضوع التالي الرجوع الى أعلى الصفحة 
صفحة 1 من اصل 1
 مواضيع مماثلة
-
» لن نرضى بغير كأس اسيا2011
» حصريا عمرو حاحا مولد عين شمس 2011
» سيارة انفينيتي (Infiniti QX (2011
» ديكورات2011
» سوتاتا 2011

صلاحيات هذا المنتدى:لاتستطيع الرد على المواضيع في هذا المنتدى
منتديات سات 2011 :: مقاطع فيديو / افلام كاملة للتحميل-
انتقل الى: