منتديات سات 2011

www.saat2011.yoo7.com
 
الرئيسيةالتسجيلدخول

شاطر | 
 

 Paul 2011 TS XViD DTRG - SAFCuk009

استعرض الموضوع السابق استعرض الموضوع التالي اذهب الى الأسفل 
كاتب الموضوعرسالة
محمد
عضو مشارك
عضو مشارك
avatar

نقاط 352
العراق
ذكر
عدد الرسائل : 77
المستوي 3
تاريخ التسجيل : 22/02/2011
العمر : 25

مُساهمةموضوع: Paul 2011 TS XViD DTRG - SAFCuk009   الخميس مايو 19, 2011 3:05 am


[ندعوك للتسجيل في المنتدى أو التعريف بنفسك لمعاينة هذه الصورة]



[ندعوك للتسجيل في المنتدى أو التعريف بنفسك لمعاينة هذه الصورة]


Format : AVI
Format/Info : Audio Video Interleave
File size : 1.09 GiB
Duration : 1h 38mn
Overall bit rate : 1 584 Kbps
Writing library : VirtualDub build 32839/release

Video
ID : 0
Format : MPEG-4 Visual
Format profile : Advanced Simple@L5
Format settings, BVOP : Yes
Format settings, QPel : No
Format settings, GMC : No warppoints
Format settings, Matrix : Custom
Codec ID : XVID
Codec ID/Hint : XviD
Duration : 1h 38mn
Bit rate : 1 446 Kbps
Width : 692 pixels
Height : 354 pixels
Display aspect ratio : 1.955
Frame rate : 25.000 fps
Color space : YUV
Chroma subsampling : 4:2:0
Bit depth : 8 bits
Scan type : Progressive
Bits/(Pixel*Frame) : 0.236
Stream size : 1 016 MiB (91%)
Writing library : XviD 1.2.1 (UTC 2008-12-04)

Audio
ID : 1
Format : MPEG Audio
Format version : Version 1
Format profile : Layer 3
Codec ID : 55
Codec ID/Hint : MP3
Duration : 1h 38mn
Bit rate mode : Constant
Bit rate : 128 Kbps
Channel(s) : 2 channels
Sampling rate : 44.1 KHz
Video delay : 2ms
Stream size : 90.0 MiB (8%)
Alignment : Split accross interleaves
Interleave, duration : 40 ms (1.00 video frame)
Interleave, preload duration : 500 ms




[ندعوك للتسجيل في المنتدى أو التعريف بنفسك لمعاينة هذا الرابط]




[ندعوك للتسجيل في المنتدى أو التعريف بنفسك لمعاينة هذه الصورة]


Storyline

Simon Pegg and Nick Frost (Hot Fuzz, Shaun of the Dead) reunite for the
comedy adventure Paul as two sci-fi geeks whose pilgrimage takes them to
America's UFO heartland. While there, they accidentally meet an alien
who brings them on an insane road trip that alters their universe
forever. For the past 60 years, an alien named Paul (voiced by Seth
Rogen) has been hanging out at a top-secret military base. When he
discovers he's been taken prisoner, the space-traveling smart ass
decides to escape the compound and hop on the first vehicle out of
town-a rented RV containing Earthlings Graeme Willy (Pegg) and Clive
Gollings (Frost). Chased by federal agents and the fanatical father of a
young woman that they accidentally kidnap, Graeme and Clive hatch a
fumbling escape plan to return Paul to his mother ship. And as two nerds
struggle to help, one little green man might just take his fellow
outcasts from misfits to intergalactic heroes.



[ندعوك للتسجيل في المنتدى أو التعريف بنفسك لمعاينة هذه الصورة]


[ندعوك للتسجيل في المنتدى أو التعريف بنفسك لمعاينة هذه الصورة]

[ندعوك للتسجيل في المنتدى أو التعريف بنفسك لمعاينة هذه الصورة]

[ندعوك للتسجيل في المنتدى أو التعريف بنفسك لمعاينة هذه الصورة]

[ندعوك للتسجيل في المنتدى أو التعريف بنفسك لمعاينة هذه الصورة]



Sources

Video - Serenity ........ Thanks
Audio - Imagine ......... Thanks guys

Actually sick of the sight of Paul by now but one last go at it with Imagines line audio .......

Ran a few files through it not alot just slight rgb colour change and slight sharpen touched down on brightness a notch

Enjoy

Apologies no sample included !



Greetz to Imagine ,Flawl3ss,DiLLoN,BDK,NOiR,TOXiCiNK,THC,Ez,Rx,





[ندعوك للتسجيل في المنتدى أو التعريف بنفسك لمعاينة هذه الصورة]





[ندعوك للتسجيل في المنتدى أو التعريف بنفسك لمعاينة هذه الصورة]



[ندعوك للتسجيل في المنتدى أو التعريف بنفسك لمعاينة هذه الصورة][ندعوك للتسجيل في المنتدى أو التعريف بنفسك لمعاينة هذه الصورة]
الرجوع الى أعلى الصفحة اذهب الى الأسفل
 
Paul 2011 TS XViD DTRG - SAFCuk009
استعرض الموضوع السابق استعرض الموضوع التالي الرجوع الى أعلى الصفحة 
صفحة 1 من اصل 1
 مواضيع مماثلة
-
» لن نرضى بغير كأس اسيا2011
» حصريا عمرو حاحا مولد عين شمس 2011
» سيارة انفينيتي (Infiniti QX (2011
» ديكورات2011
» سوتاتا 2011

صلاحيات هذا المنتدى:لاتستطيع الرد على المواضيع في هذا المنتدى
منتديات سات 2011 :: مقاطع فيديو / افلام كاملة للتحميل-
انتقل الى: