منتديات سات 2011

www.saat2011.yoo7.com
 
الرئيسيةالتسجيلدخول

شاطر | 
 

 Battle Los Angeles 2011 720p BRRip x264

استعرض الموضوع السابق استعرض الموضوع التالي اذهب الى الأسفل 
كاتب الموضوعرسالة
محمد
عضو مشارك
عضو مشارك
avatar

نقاط 352
العراق
ذكر
عدد الرسائل : 77
المستوي 3
تاريخ التسجيل : 22/02/2011
العمر : 25

مُساهمةموضوع: Battle Los Angeles 2011 720p BRRip x264   الخميس مايو 19, 2011 3:19 am

[ندعوك للتسجيل في المنتدى أو التعريف بنفسك لمعاينة هذه الصورة]



Genre:Action | Sci-Fi | Thriller
Language:English
IMDb:[ندعوك للتسجيل في المنتدى أو التعريف بنفسك لمعاينة هذا الرابط]
Source:720p.BluRay.x264.BLA
Subtitles:Romana

Format : MPEG-4
Format profile : Base Media
Codec ID : isom
File size : 2.76 GiB
Duration : 1h 56mn
Overall bit rate : 3 395 Kbps

Video
ID : 1
Format : AVC
Format/Info : Advanced Video Codec
Format profile : High@L4.1
Format settings, CABAC : Yes
Format settings, ReFrames : 3 frames
Codec ID : avc1
Codec ID/Info : Advanced Video Coding
Duration : 1h 56mn
Bit rate mode : Variable
Bit rate : 3 000 Kbps
Maximum bit rate : 23.6 Mbps
Width : 1 280 pixels
Height : 536 pixels
Display aspect ratio : 2.35:1
Frame rate mode : Constant
Frame rate : 23.976 fps
Color space : YUV
Chroma subsampling : 4:2:0
Bit depth : 8 bits
Scan type : Progressive
Bits/(Pixel*Frame) : 0.182
Stream size : 2.39 GiB (87%)
Writing library : x264

Audio
ID : 2
Format : AAC
Format/Info : Advanced Audio Codec
Format version : Version 4
Format profile : LC
Format settings, SBR : No
Codec ID : 40
Duration : 1h 56mn
Bit rate mode : Variable
Bit rate : 447 Kbps
Maximum bit rate : 537 Kbps
Channel(s) : 6 channels
Channel positions : Front: L C R, Side: L R, LFE
Sampling rate : 48.0 KHz
Stream size : 372 MiB (13%)

Plot:
A Marine platoon faces off against an alien invasion in Los Angeles.

TRAILER:




[ندعوك للتسجيل في المنتدى أو التعريف بنفسك لمعاينة هذه الصورة]
[ندعوك للتسجيل في المنتدى أو التعريف بنفسك لمعاينة هذه الصورة]
[ندعوك للتسجيل في المنتدى أو التعريف بنفسك لمعاينة هذه الصورة]
[ندعوك للتسجيل في المنتدى أو التعريف بنفسك لمعاينة هذه الصورة]
[ندعوك للتسجيل في المنتدى أو التعريف بنفسك لمعاينة هذه الصورة]

Greets:

INK,CRYS,IMAGINE,LKRG,FXG,3Li,FLAWL3SS,TA,iLLUSiON,ViSiON,DTRG
SAFCuk009,LU,TheFalcon007,MYSTiC,PrisM,Noir,WBZ,LAP,Rx,Kingdom,SAFCuk009+Fabreezy,HDLiTE,TWiZTED,ExtraTorrentRG.ELEKTRI4KA,MAGNAT,CM8
And to all the other p2p grps past and present




Make sure its a real Feel-Free release @ [ندعوك للتسجيل في المنتدى أو التعريف بنفسك لمعاينة هذا الرابط]

[ندعوك للتسجيل في المنتدى أو التعريف بنفسك لمعاينة هذا الرابط][ندعوك للتسجيل في المنتدى أو التعريف بنفسك لمعاينة هذا الرابط]
الرجوع الى أعلى الصفحة اذهب الى الأسفل
 
Battle Los Angeles 2011 720p BRRip x264
استعرض الموضوع السابق استعرض الموضوع التالي الرجوع الى أعلى الصفحة 
صفحة 1 من اصل 1
 مواضيع مماثلة
-
» لن نرضى بغير كأس اسيا2011
» حصريا عمرو حاحا مولد عين شمس 2011
» سيارة انفينيتي (Infiniti QX (2011
» ديكورات2011
» سوتاتا 2011

صلاحيات هذا المنتدى:لاتستطيع الرد على المواضيع في هذا المنتدى
منتديات سات 2011 :: مقاطع فيديو / افلام كاملة للتحميل-
انتقل الى: