منتديات سات 2011

www.saat2011.yoo7.com
 
الرئيسيةالتسجيلدخول

شاطر | 
 

 Browse Movies torrents The.Inheritance.2011.720p.BRRip.x264

استعرض الموضوع السابق استعرض الموضوع التالي اذهب الى الأسفل 
كاتب الموضوعرسالة
محمد
عضو مشارك
عضو مشارك
avatar

نقاط 352
العراق
ذكر
عدد الرسائل : 77
المستوي 3
تاريخ التسجيل : 22/02/2011
العمر : 25

مُساهمةموضوع: Browse Movies torrents The.Inheritance.2011.720p.BRRip.x264   الخميس مايو 19, 2011 4:00 am

[ندعوك للتسجيل في المنتدى أو التعريف بنفسك لمعاينة هذه الصورة]



Genre:Thriller
Language:English
IMDb:http://www.imdb.com/title/tt1342115/
Source:1080p.BluRay.x264-UNTOUCHABLES
Subtitles:Romana

Format : MPEG-4
Format profile : Base Media
Codec ID : isom
File size : 1.99 GiB
Duration : 1h 24mn
Overall bit rate : 3 367 Kbps

Video
Format profile : High@L4.1
Format settings, CABAC : Yes
Format settings, ReFrames : 3 frames
Codec ID : avc1
Codec ID/Info : Advanced Video Coding
Duration : 1h 24mn
Bit rate mode : Variable
Bit rate : 3 000 Kbps
Maximum bit rate : 13.0 Mbps
Width : 1 280 pixels
Height : 688 pixels
Display aspect ratio : 1.860
Frame rate mode : Constant
Frame rate : 23.976 fps
Color space : YUV
Chroma subsampling : 4:2:0
Bit depth : 8 bits
Scan type : Progressive
Bits/(Pixel*Frame) : 0.142
Stream size : 1.73 GiB (87%)
Writing library : x264

Audio
ID : 2
Format : AAC
Format/Info : Advanced Audio Codec
Format version : Version 4
Format profile : LC
Format settings, SBR : No
Codec ID : 40
Duration : 1h 24mn
Bit rate mode : Variable
Bit rate : 443 Kbps
Maximum bit rate : 522 Kbps
Channel(s) : 6 channels
Channel positions : Front: L C R, Side: L R, LFE
Sampling rate : 48.0 KHz
Stream size : 268 MiB (13%)


Plot:
Five ambitious cousins set out on a family reunion during the dead of
winter. The purpose of the retreat is to secure their inheritance, a
fortune that dates back many generations. Upon their arrival, Uncle
Melvin (Keith David) welcomes them with open arms, but warns them to
respect their family traditions. During the weekend, as each of the
cousins mysteriously disappear, they learn the truth about their family
legacy, blood ancestry and the ultimate sacrifice they must make in
exchange for their beloved inheritance.

TRAILER:




[ندعوك للتسجيل في المنتدى أو التعريف بنفسك لمعاينة هذه الصورة]
[ندعوك للتسجيل في المنتدى أو التعريف بنفسك لمعاينة هذه الصورة]
[ندعوك للتسجيل في المنتدى أو التعريف بنفسك لمعاينة هذه الصورة]
[ندعوك للتسجيل في المنتدى أو التعريف بنفسك لمعاينة هذه الصورة]

Greets:

INK,CRYS,IMAGINE,LKRG,FXG,3Li,FLAWL3SS,TA,iLLUSiON,ViSiON,DTRG
SAFCuk009,LU,TheFalcon007,MYSTiC,PrisM,Noir,WBZ,LAP,Rx,Kingdom,SAFCuk009+Fabreezy,HDLiTE,TWiZTED,ExtraTorrentRG.ELEKTRI4KA,MAGNAT,CM8
And to all the other p2p grps past and present




Make sure its a real Feel-Free release @ [ندعوك للتسجيل في المنتدى أو التعريف بنفسك لمعاينة هذا الرابط]

[ندعوك للتسجيل في المنتدى أو التعريف بنفسك لمعاينة هذه الصورة][ندعوك للتسجيل في المنتدى أو التعريف بنفسك لمعاينة هذه الصورة]
الرجوع الى أعلى الصفحة اذهب الى الأسفل
 
Browse Movies torrents The.Inheritance.2011.720p.BRRip.x264
استعرض الموضوع السابق استعرض الموضوع التالي الرجوع الى أعلى الصفحة 
صفحة 1 من اصل 1

صلاحيات هذا المنتدى:لاتستطيع الرد على المواضيع في هذا المنتدى
منتديات سات 2011 :: مقاطع فيديو / افلام كاملة للتحميل-
انتقل الى: